OpenELEC Forum
BluRay movies not displaying as HD - Printable Version

+- OpenELEC Forum (https://forum.openelec.tv)
+-- Forum: Generic Forum (https://forum.openelec.tv/forumdisplay.php?fid=5)
+--- Forum: KODI (https://forum.openelec.tv/forumdisplay.php?fid=32)
+--- Thread: BluRay movies not displaying as HD (/showthread.php?tid=65966)



BluRay movies not displaying as HD - ellisr63 - 08-01-2013

I have 3 movies that I ripped from Bluray to ISO with anydvd and they are not displaying the green HD... Why is that? All my other movies show the green HD.

They are: Harry Potter and the Half Blood Prince, Avatar, and Jumper


BluRay movies not displaying as HD - chewitt - 08-02-2013

You need to show us mediainfo for the file else we can only guess (and our ESP is sucky)


BluRay movies not displaying as HD - ellisr63 - 08-02-2013

Where o I find it?


BluRay movies not displaying as HD - chewitt - 08-02-2013

http://mediaarea.net/en/MediaInfo .. text output


BluRay movies not displaying as HD - ellisr63 - 08-02-2013

chewitt post=81353 Wrote:http://mediaarea.net/en/MediaInfo .. text output
Can I install this in Win 7 and then direct it to the movie on my NAS... or does it need to be installed on the Openeled machine?

tia,
Ron


BluRay movies not displaying as HD - chewitt - 08-02-2013

Yes, install to a desktop OS (not OpenELEC)


BluRay movies not displaying as HD - ellisr63 - 08-02-2013

I have it installed and I saved it as a XML... Here it is for Avatar.








BluRay movies not displaying as HD - ellisr63 - 08-02-2013

For some reason I have not been able to export the file... What I have noticed is that it appears that it is only the movies that have been ripped with AnyDVD as a iso. Is ripping to a ISO a problem?


BluRay movies not displaying as HD - chewitt - 08-02-2013

copy/paste the TEXT from the main window that shows the formats for the media file .. I have no interest in reading XML files


BluRay movies not displaying as HD - ellisr63 - 08-02-2013

I must be doing something wrong... This is all I am seeing when I try to view the 3 files from the folder.
General
Complete name : \TOWERMY HD MoviesAvatarAvatar.dvd
File size : 27.0 Bytes

General
Complete name : \TOWERMY HD MoviesAvatarAvatar.iso
File size : 46.6 GiB


This is what I see when I view a mkv file which shows the HD label...
General
Unique ID : 237380681082095594804280273764549911478 (0xB295DB2F5DCEBE1293302556942BE3B6)
Complete name : \TOWERMY HD Movies2 Fast 2 Furious2 Fast 2 Furious.mkv
Format : Matroska
Format version : Version 1
File size : 4.37 GiB
Duration : 1h 47mn
Overall bit rate : 5 813 Kbps
Encoded date : UTC 2009-04-09 15:05:43
Writing application : mkvmerge v2.2.0 ('Turn It On Again') built on Mar 4 2008 12:58:26
Writing library : libebml v0.7.7 + libmatroska v0.8.1

Video
ID : 1
Format : AVC
Format/Info : Advanced Video Codec
Format profile : High@L4.1
Format settings, CABAC : Yes
Format settings, ReFrames : 8 frames
Codec ID : V_MPEG4/ISO/AVC
Duration : 1h 47mn
Bit rate : 4 301 Kbps
Width : 1 280 pixels
Height : 544 pixels
Display aspect ratio : 2.35:1
Frame rate mode : Constant
Frame rate : 23.976 fps
Color space : YUV
Chroma subsampling : 4:2:0
Bit depth : 8 bits
Scan type : Progressive
Bits/(Pixel*Frame) : 0.258
Stream size : 3.15 GiB (72%)
Writing library : x264 core 67 r1128M 682b54d
Encoding settings : cabac=1 / ref=8 / deblock=1:-2:-1 / analyse=0x3:0x113 / me=umh / subme=7 / psy_rd=1.0:0.0 / mixed_ref=1 / me_range=16 / chroma_me=1 / trellis=2 / 8x8dct=1 / cqm=0 / deadzone=21,11 / chroma_qp_offset=-2 / threads=12 / nr=0 / decimate=1 / mbaff=0 / bframes=16 / b_pyramid=1 / b_adapt=1 / b_bias=0 / direct=3 / wpredb=1 / keyint=250 / keyint_min=25 / scenecut=40 / rc=2pass / bitrate=4301 / ratetol=1.0 / qcomp=0.60 / qpmin=10 / qpmax=51 / qpstep=4 / cplxblur=20.0 / qblur=0.5 / ip_ratio=1.40 / pb_ratio=1.30 / aq=1:1.00
Language : English
Default : Yes
Forced : No

Audio
ID : 2
Format : DTS
Format/Info : Digital Theater Systems
Mode : 16
Format settings, Endianness : Big
Codec ID : A_DTS
Duration : 1h 47mn
Bit rate mode : Constant
Bit rate : 1 509 Kbps
Channel(s) : 6 channels
Channel positions : Front: L C R, Side: L R, LFE
Sampling rate : 48.0 KHz
Bit depth : 24 bits
Compression mode : Lossy
Stream size : 1.14 GiB (26%)
Language : English
Default : Yes
Forced : No




General
Complete name : \TOWERMY HD MoviesAvatarAvatar.md5
File size : 32.0 Bytes